#TITLE:dragon blade;
#SUBTITLE:Stepped by Baku;
#ARTIST:Kozo nakamura;
#TITLETRANSLIT:;
#SUBTITLETRANSLIT:;
#ARTISTTRANSLIT:;
#CREDIT:;
#BANNER:Dragon Bladebanner.bmp;
#BACKGROUND:dragon.jpg;
#LYRICSPATH:;
#CDTITLE:BakuCD.bmp;
#MUSIC:dragon blade.mp3;
#OFFSET:-0.040;
#SAMPLESTART:26.886;
#SAMPLELENGTH:12.000;
#SELECTABLE:YES;
#BPMS:0.000=120.000,20.000=240.000;
#STOPS:;
#BGCHANGES:;
// cache tags:
#FIRSTBEAT:4.000;
#LASTBEAT:450.000;
#SONGFILENAME:Songs/Music V.I.P ^_^/Dragon Blade/Guitar Freaks 11th Mix & Drummania 10th Mix - Dragon Blade.sm;
#HASMUSIC:1;
#HASBANNER:1;
#MUSICLENGTH:118.943;
// end cache tags

//---------------dance-single - MANIAC----------------
#NOTES:
     dance-single:
     MANIAC:
     Hard:
     10:
     0.915,0.992,0.471,0.446,0.130,653.000,56.000,53.000,0.000,1.000:

0000
0000
0000
0000
,
0100
1000
0100
1000
0000
0000
0001
0010
0000
0000
0100
1000
0100
1000
0000
0000
,
0001
0100
0001
0010
0000
0000
0100
1000
0000
0000
0100
1000
0100
1000
0000
0000
,
0100
1000
0100
0010
0000
0000
0001
1000
0000
0000
0001
0010
0100
1000
0000
0000
,
0010
0100
1000
0010
0000
0000
0001
1000
0000
0000
0001
1000
0001
1000
0001
0000
,
0100
1000
0100
0100
,
0001
1000
0001
0011
,
0100
1000
0100
0110
,
0001
1000
0100
0120
,
0030
1000
0001
0010
,
0001
0011
0100
1000
,
1100
0100
0011
0110
,
1001
2010
3001
0000
,
1000
0000
0100
0000
0100
0001
0010
0000
,
0001
0000
1000
0000
0100
0010
0100
0000
,
0100
1000
0100
0010
0001
0100
0010
0100
,
1000
0010
0001
1000
0001
1000
0100
0100
,
0010
0100
0010
1000
0001
1000
0001
0100
,
0010
0010
0100
1000
0002
0000
0003
0000
,
1000
0100
1000
0000
0001
0010
0100
0010
,
0100
1000
0001
0010
0100
1000
0010
1000
,
0010
0100
0000
1200
0300
0021
0030
2100
,
3000
0210
0300
2001
3000
0201
0000
0300
,
0010
0100
1000
0001
0100
0010
0100
1000
,
0100
1000
0100
1000
0100
0010
0001
0100
,
0100
0010
0100
1000
0100
0010
0100
0010
,
0001
1000
0100
0010
0200
0000
0000
0300
,
1000
0100
0010
0100
1000
0100
0010
1020
,
0000
1030
0100
1000
0100
1000
0010
0000
,
0100
0010
0001
0010
0000
0000
0000
0000
1000
0100
0010
0100
0000
0000
0000
0000
,
1000
0100
0010
0001
0000
0000
0000
0000
1000
0100
0010
0001
0000
0000
0000
0000
,
2000
0000
0000
0000
0000
0000
0000
3000
0200
0000
0010
0000
0001
0000
0310
0000
,
0000
0000
1000
0001
1000
0001
1000
0010
,
0001
0000
0000
0201
0000
0000
0001
0000
,
0300
0000
1000
0001
1000
0001
1000
0000
,
0012
0003
1000
0001
1000
0100
0010
0100
,
0200
0000
1300
0001
1000
0001
0010
0100
,
2000
0000
0001
3010
0100
0010
0100
0010
,
1200
0300
0001
1000
0001
1000
0100
0010
,
0200
0000
0300
0000
1000
1000
0100
0100
,
0000
1100
0000
0110
0000
1001
0000
1000
,
0200
0000
0300
0000
1000
0001
0010
0200
,
0000
0300
0000
0000
,
0100
1000
0100
0001
0100
0010
0100
1000
,
0100
0010
0001
1000
0001
0010
0100
1000
,
0110
0001
0000
1100
0100
0000
1001
0100
,
0000
1010
0100
0000
0100
1000
0100
1000
,
1100
0010
0000
0101
1000
0000
0110
0020
,
0000
0030
0100
1000
0001
1000
0200
0300
,
1000
0010
0000
0100
1000
0001
0100
0100
,
0010
0100
0100
1000
0100
0020
0030
0000
,
1100
1100
0000
0010
1000
0100
1000
0100
,
1000
0010
0100
0010
0200
0000
0000
0300
,
1100
0110
0000
0010
0100
1000
0100
0010
,
0100
0001
0010
0100
2000
0000
3000
0000
,
1000
0100
0010
0100
0010
1000
0100
1000
,
0100
0010
0010
1000
0020
0000
0030
0000
,
1000
0100
0010
0100
0010
0100
1000
0001
,
0010
0100
0010
0100
1000
0001
0010
0100
,
0010
0001
0100
0001
0100
1000
0001
0100
,
0001
1000
0100
0010
0100
0010
0001
1000
,
0100
0010
0001
1000
0010
1000
0010
1000
,
0001
0100
0010
0010
0100
0001
0100
1000
,
0100
1000
0001
0010
0100
1000
0001
1000
,
0010
1000
0001
1000
0100
0010
0100
1000
,
0002
0000
0000
0000
0000
0000
0000
0003
,
1000
0100
1000
0100
0000
1000
0001
0000
,
2000
0000
0000
0000
0000
3000
0000
0000
,
0021
0000
0030
1200
0000
0300
0012
0000
,
2003
0000
0000
0000
0000
3000
0000
0000
,
0002
0000
0003
2000
0000
3000
1100
0000
,
0210
0000
0000
0000
0000
0000
0000
0300
,
0020
0000
0000
0030
0000
0000
0000
0000
,
2001
0000
0000
0000
,
0000
0000
0000
3000
,
0110
0000
0000
0101
0000
0000
1100
0000
,
0000
1001
0011
0000
,
0100
0010
0100
0001
0100
0010
0001
0010
,
0001
1000
0100
0010
0100
0010
0001
1000
,
0001
0100
0010
0001
1000
0010
1000
0010
,
1000
0001
0010
0100
0010
0001
1000
0001
,
1000
0010
1000
0001
1000
0001
0010
0100
,
0010
0001
1000
0010
1000
0001
1000
0000
,
1100
0110
0000
1010
0000
0110
0000
1010
,
0000
0110
0000
0011
0000
0101
0000
0000
,
1000
0100
1000
0100
1000
0100
1000
0100
,
1000
0001
0010
0100
0010
0100
1000
0001
,
0010
0100
1000
0001
1000
0010
1000
0001
,
1000
0100
1000
0100
0100
0000
0000
0000
,
1000
0001
1000
0010
0100
0010
1000
0200
,
0300
0000
1000
0001
1000
0100
1000
0001
,
0100
1000
0010
1000
0100
0010
0100
0010
,
0001
1000
0100
0010
0100
0010
0100
0000
,
0001
0000
0000
1000
0000
0100
0000
0000
1000
0000
0100
0000
0000
2000
3000
0000
,
0000
0000
0000
0000
,
2000
0000
0000
3000
0001
0010
0100
0010
,
0100
1000
0100
0010
0100
0010
0100
1000
,
0001
0010
0100
0010
0100
1000
0001
0010
,
0100
0010
0100
1000
0100
0010
0100
0010
,
2000
0000
0000
0000
3010
0100
0010
0100
,
0010
0000
0000
2200
0300
3000
0021
0030
,
0020
0000
0000
2230
3000
0300
2010
3000
,
0200
0000
0000
0310
0000
0000
1000
0000
,
2000
0000
3000
0000
0001
0010
0100
0010
,
0100
1000
0100
1000
0100
0010
0100
0010
,
0100
0100
0001
0100
0010
0010
0010
0100
,
1000
0100
1000
0100
0010
0001
0100
0010
,
0200
0000
0000
0000
0301
1000
0001
1000
,
0100
0000
0000
0010
0000
0000
0100
0000
,
1000
0100
1000
0100
1000
0100
1000
0100
,
0001
0100
0001
0100
0001
0010
0100
0010
,
0100
1000
0100
1000
0100
1000
0100
1000
,
0200
0000
0000
0300
0000
0000
0000
0000
,;

//---------------dance-single - ANOTHER----------------
#NOTES:
     dance-single:
     ANOTHER:
     Medium:
     7:
     0.449,0.520,0.050,0.336,0.017,328.000,6.000,40.000,0.000,0.000:

0000
0000
0000
0000
,
0100
1000
0100
1000
0000
0000
0000
0000
0000
0000
0000
0000
0000
0000
0000
0000
,
0000
0000
0000
0000
,
0001
0010
0001
0010
0000
0000
0000
0000
0000
0000
0000
0000
0000
0000
0000
0000
,
0000
0000
0000
0000
,
1000
0100
1000
0100
,
1000
0100
1000
0100
,
1000
0001
0010
0100
,
1000
0001
0001
0002
,
0000
1003
0100
0010
,
0100
1000
0100
0010
,
0100
1000
0100
0010
,
0100
1000
0001
1000
,
0200
0000
0000
0300
,
2000
0000
3000
0000
,
0001
1000
0100
0010
,
0100
1000
0100
0010
,
0100
1000
0100
0010
,
0100
1000
0100
1000
,
0100
1000
0100
0000
0001
0010
0001
0000
,
0100
1000
0100
0000
0001
0010
0001
0000
,
1000
0001
0000
0100
0000
1000
0000
0010
,
0000
1000
0000
0001
0000
1000
0000
0000
,
0100
1000
0100
0010
,
0001
1000
0100
0010
,
0100
1000
0001
0010
,
0100
1000
0100
0010
,
0200
0000
0000
0000
,
0000
0300
2000
0000
,
0000
3000
0002
0000
,
0000
0003
2000
0000
,
0000
3000
0001
0000
,
0000
1000
0000
0000
,
0001
1000
0100
0010
,
0100
1000
0100
0010
,
0001
0011
0100
1000
,
0100
1100
0001
0010
,
0001
0011
0100
1000
,
0100
1100
0010
1000
,
0001
1000
0100
1000
,
0100
1000
0100
1000
,
0100
1000
0000
0100
,
0002
0000
0000
0003
,
2000
0000
0000
3000
,
0002
0000
0000
0003
,
2000
0000
3000
0000
,
0020
0000
0000
0030
,
0001
1000
0100
0010
,
0100
1000
0001
1000
,
0002
0000
0000
0000
,
2003
0000
0000
3000
,
0020
0000
0000
0030
,
2000
0000
3000
0000
,
0200
0000
0000
0300
,
2000
0000
3000
0000
,
0002
0000
0000
0003
,
2000
0000
3000
0000
,
0100
0010
0100
0010
,
0100
1000
0100
1000
,
0001
0010
0001
0010
,
0100
0010
0100
0010
,
0100
1000
0100
1000
,
0001
0010
0001
0010
,
0100
1000
0100
1000
,
0100
0010
0200
0000
,
0310
0100
1000
0100
,
0010
0100
1000
0100
,
0020
0000
0000
0030
,
0002
0000
0000
0003
,
2000
0000
0000
3000
,
0200
0000
0000
0300
,
0020
0000
0000
0030
,
0002
0000
0000
0003
,
1000
0100
1000
0100
,
0020
0000
0000
0030
,
0001
1000
0100
1000
,
0200
0000
0000
0300
,
1000
0100
1000
0001
,
0010
0001
1000
0100
,
0010
0100
1000
0001
,
0010
0001
0011
0000
,
1000
0000
0100
0000
,
1000
0000
0001
0000
,
1000
0001
0000
1000
0000
0100
0000
1000
,
0000
0100
0000
1000
0000
0100
0000
0000
,
1000
0001
0010
0100
,
1000
0100
0010
0100
,
1000
0001
0010
0100
,
1000
0100
2001
0000
,
3100
0010
0001
1000
,
0100
0010
0100
1000
,
0001
0010
0100
1000
,
0001
0010
0100
0010
,
0100
1000
0100
0010
,
0200
0000
0000
0000
,
2300
0000
0000
3000
,
0001
0010
0100
1000
,
0001
0010
0100
0010
,
0100
0001
0100
0001
,
0100
0010
0001
1000
,
0100
0001
0100
1000
,
0100
0010
0100
0001
,
0100
1000
0100
0001
,
0200
0000
0310
0001
,
1000
0100
0010
0100
,
1000
0001
0010
0100
,
2000
0000
3001
0010
,
0200
0000
1300
0001
,
0020
0000
0130
1000
,
0002
0000
1003
0100
,
0020
0000
0000
0030
,
0200
0000
0000
0300
,
2000
0000
3000
0000
,;

//---------------dance-single - BASIC----------------
#NOTES:
     dance-single:
     BASIC:
     Easy:
     5:
     0.166,0.235,0.000,0.202,0.000,114.000,0.000,24.000,0.000,0.000:

0000
0000
0000
0000
,
1000
0000
0000
0000
,
0000
0000
0000
0000
,
0001
0000
0000
0000
,
0000
0000
0000
0000
,
2000
0000
0000
0000
,
0000
0000
0000
0000
,
0000
0000
0000
0000
,
0000
0000
0000
3000
,
0002
0000
0000
0000
,
0000
0000
0000
0000
,
0000
0000
0000
0000
,
0000
0000
0003
0000
,
0010
0000
0000
0000
,
0100
0000
0000
0000
,
0100
0000
0000
0000
,
0000
0000
0000
0000
,
0000
0000
0000
0000
,
0000
0000
0000
0000
,
1000
0000
0100
0000
,
1000
0000
0001
0000
,
0002
0000
0000
0000
,
0000
0000
0003
0000
,
1000
0000
0000
0000
,
0000
0000
0000
0000
,
0000
0000
0000
0000
,
0000
0000
0000
0000
,
0100
0000
0010
0000
,
1000
0000
0100
0000
,
0010
0000
0001
0000
,
0001
0000
0001
0000
,
0200
0000
0000
0300
,
2000
0000
0000
3000
,
0200
0000
0000
0300
,
2000
0000
0000
3000
,
0100
0000
1000
0000
,
0100
0000
0000
0000
,
0010
0000
0000
0000
,
0001
0000
0000
0000
,
0100
0000
0100
0000
,
0100
0000
0000
0000
,
0001
0000
0100
0000
,
0100
0000
0000
0000
,
0100
0000
0000
0000
,
1000
0000
0000
0000
,
2000
0000
0000
0000
,
0000
0000
3000
0000
,
0002
0000
0000
0000
,
0000
0000
0003
0000
,
0010
0000
0000
0000
,
0000
0000
0000
0000
,
1000
0000
0000
0000
,
0000
0000
0000
0000
,
0100
0000
0000
0000
,
0000
0000
0000
0000
,
0100
0000
0000
0000
,
0000
0000
0000
0000
,
0100
0000
0100
0000
,
0100
0000
0001
0000
,
0001
0000
0001
0000
,
0100
0000
0100
0000
,
1000
0000
0000
0000
,
1000
0000
0000
0000
,
1000
0000
0000
0000
,
0100
0000
0000
0000
,
0020
0000
0000
0030
,
0002
0000
0000
0003
,
2000
0000
3000
0000
,
0100
0000
0000
0000
,
0020
0000
0030
0000
,
0100
0000
0000
0000
,
2000
0000
3000
0000
,
0020
0000
0030
0000
,
0001
0000
0000
0000
,
0100
0000
0000
0000
,
1000
0000
0000
0000
,
1000
0000
0000
0000
,
2000
0000
0000
0000
,
0000
0000
0000
0000
,
0000
0000
0000
0000
,
0000
0000
0000
3000
,
0002
0000
0000
0000
,
0000
0000
0000
0003
,
0020
0000
0000
0030
,
0200
0000
0000
0300
,
0020
0000
0000
0000
,
0000
0000
0000
0000
,
0000
0000
0000
0030
,
0001
0000
0001
0000
,
0100
0000
0000
0000
,
0100
0000
0000
0000
,
0010
0000
0000
0000
,
0001
0000
0000
0000
,
0100
0000
0100
0000
,
0200
0000
0000
0000
,
0310
0000
0100
0000
,
1000
0000
0100
0000
,
1000
0000
0100
0000
,
1000
0000
0010
0000
,
0001
0000
0100
0000
,
0010
0000
0100
0000
,
0010
0000
0001
0000
,
0100
0000
0010
0000
,
2000
0000
0000
3000
,
0010
0000
0001
0000
,
0100
0000
0010
0000
,
0100
0000
0010
0000
,
0010
0000
0001
0000
,
0100
0000
1000
0000
,
0001
0000
0010
0000
,
0200
0000
0000
0000
,
2300
0000
0000
0000
,
3001
0000
0000
0000
,;
